#TITLE:Alfarshear;
#SUBTITLE:The Legend Of Silver Wings;
#ARTIST:Terra;
#TITLETRANSLIT:;
#SUBTITLETRANSLIT:;
#ARTISTTRANSLIT:;
#CREDIT:Thu Sau , 13-11-2009;
#BANNER:ALFARSHEAR.png;
#BACKGROUND:ALFARSHEAR-bg.png;
#LYRICSPATH:;
#CDTITLE:CD.png;
#MUSIC:15. ALFASHEAR.mp3;
#OFFSET:-0.460;
#SAMPLESTART:39.974;
#SAMPLELENGTH:20.000;
#SELECTABLE:YES;
#DISPLAYBPM:170.000;
#BPMS:0.000=170.000,227.000=85.000,243.000=170.000;
#STOPS:;
#BGCHANGES:;
// cache tags:
#FIRSTBEAT:0.000;
#LASTBEAT:295.500;
#SONGFILENAME:Songs/Music V.I.P ^_^/Alfarshear/ALFARSHEAR.sm;
#HASMUSIC:1;
#HASBANNER:1;
#MUSICLENGTH:117.120;
// end cache tags

//---------------dance-single - ----------------
#NOTES:
     dance-single:
     :
     Hard:
     15:
     1.000,1.000,1.000,0.316,1.000,796.000,271.000,37.000,0.000,70.000:
0201
0000
0000
0010
0001
0010
1000
0010
,
2300
0000
0000
0100
0010
0100
0010
0001
,
3020
0000
0000
0100
0001
0100
1000
0100
,
0032
0000
0000
0100
0020
0100
1000
0100
,
1133
1000
0011
1000
0110
0001
1010
0100
,
0011
0100
1010
0001
1100
0010
0101
0010
,
1100
0001
0110
1000
0101
0010
1100
0001
,
0110
1000
0101
1000
0011
0100
1010
0100
,
0011
1000
0110
0001
1010
0100
0011
1000
,
0110
1000
0101
0010
1100
0001
0110
0001
,
1010
0000
0100
0000
0011
0000
1000
0000
0110
0000
1001
0010
0101
1000
0110
0001
,
2220
0000
0000
0000
0002
3030
0000
0000
,
1313
0010
1100
0001
0110
0010
2100
0001
,
3120
1000
0131
0010
0110
0001
1020
0001
,
2130
0001
3110
1000
0101
0010
1200
0001
,
0312
0100
1013
1000
0011
0100
2010
3020
,
1131
0001
1100
0010
0101
1000
0110
0001
,
0111
0100
1010
0001
1100
0010
0101
0001
,
1110
1000
0110
0010
1001
0010
1010
0100
,
0011
0000
0100
0000
1100
0000
0010
0000
0101
0000
1010
0001
0110
1000
0101
0010
,
1001
0000
0010
0000
1100
0000
0001
0000
1010
0100
0010
0100
1001
0000
1000
0000
,
0110
0000
0001
0000
1010
0000
0100
0000
0011
0100
1000
0001
0110
0000
0010
0000
,
1001
0000
0010
0000
0101
0000
0100
0000
0011
0100
1000
0010
0110
0000
0100
0000
,
1001
0000
0001
0000
1010
0000
0010
0000
1100
0001
0010
1000
0101
0000
0010
0000
,
1100
0000
0001
0000
0110
0000
1000
0000
0011
1000
0010
0100
1001
0000
0010
0000
,
1100
0000
0001
0000
1010
0000
0010
0000
1100
0010
0001
0010
0110
0000
1000
0000
,
0111
0000
0010
0000
1100
0000
0001
0000
1010
0000
0101
0010
1100
0001
0110
1000
,
0222
0000
0000
0000
1000
0000
2000
0000
0033
0001
0010
0001
0010
0001
0010
0001
,
3311
0000
1000
0001
0110
0000
0001
0100
1010
0000
0010
0001
1100
0000
0001
0010
,
1101
0000
1000
0010
1100
0000
0010
1000
0101
0000
0100
1000
0011
0000
1000
0001
,
1110
0000
0100
0001
1010
0000
0010
0001
1100
0000
0100
1000
0110
0000
0001
0010
,
1101
0000
0010
0001
0110
0000
1000
0010
0101
0000
1000
0100
0011
0000
0010
0100
,
1011
0000
0001
1000
0101
0000
0010
0100
0011
0000
1000
0100
0011
0000
0010
0100
,
1011
0000
0010
0100
1010
0000
0100
0010
1100
0000
0001
0010
0101
0000
0010
1000
,
0111
0000
1000
0010
1100
0000
0001
0100
1010
0000
0001
0010
1001
0000
0010
0100
,
1011
0000
0010
0001
1010
0000
0001
0010
1100
0000
0110
0000
0111
0000
1110
0000
,
0111
1000
0100
0010
1001
0100
0010
0100
1010
0100
0001
0010
1100
0010
1000
0100
,
1011
0100
1000
0010
0101
0010
0001
0010
1100
0001
0100
0010
0101
0010
0001
0100
,
1011
0100
0001
0010
1100
0010
0001
0100
1010
0100
0001
1000
0110
1000
0001
0010
,
1101
0010
0100
1000
0011
1000
0100
0001
1010
0100
0001
0010
1100
0001
0010
1000
,
0101
0010
1000
0001
1010
0100
1000
0010
1100
0001
1000
0100
1001
0010
1000
0100
,
1011
0100
0010
1000
0110
1000
0010
0001
1100
0010
0100
0001
0110
1000
0100
0010
,
1101
0010
0100
1000
0011
1000
0001
0100
1010
0100
0001
1000
0101
0010
1000
0100
,
1012
0100
0010
1000
0100
0010
0100
1000
0100
0010
1100
0010
1100
0010
1100
0010
,
1103
0001
0010
0101
1000
0101
0010
0001
,
1010
0100
1000
0100
1010
0001
0010
0101
,
1000
0101
0010
0001
0010
0100
1000
0100
,
1010
0001
0010
0101
1000
0101
0010
0001
,
1010
0100
1000
0100
1010
0001
1010
0100
,
1010
0100
1010
0001
1010
0100
1010
0001
,
1011
0100
0010
1001
0110
0001
1000
0101
1010
0100
0010
1100
0011
0100
0010
0101
,
1010
0001
0100
0011
1100
0010
1000
0101
1010
0001
0010
1100
0011
0100
0010
1001
,
0110
1000
0100
1010
0101
0010
0100
1001
0110
0001
1000
0110
1001
0100
0010
0101
,
1110
0001
0010
1100
0011
1000
0010
0101
1010
0100
0010
1001
0111
1000
0100
0011
,
1100
0010
1000
0110
1001
0010
1000
0011
1101
0010
0100
1001
0110
0001
0010
1100
,
0011
1000
0010
0101
1011
0100
0001
0110
1001
0100
0001
1010
0101
1000
0010
1001
,
0220
0000
0002
0300
0000
0000
1033
0100
,
0010
0000
0001
0000
1020
0000
0000
1000
0130
0000
0000
0000
0001
0000
0010
0000
,
0100
0000
1000
0000
0102
0000
0000
0010
0013
0000
0000
0000
1000
0000
0100
0000
,
0010
0000
0001
0000
0210
0000
0000
0000
0300
0010
0100
0010
0002
0000
0000
0020
,
0003
0000
0000
0000
0130
0000
0000
0000
1000
0000
0000
0000
0100
1000
0100
1000
0100
0010
0100
1000
0100
0010
0100
1000
0111
0000
1000
0000
0010
0000
0100
0000
,
1001
0100
0010
0100
1010
0100
0010
0001
0110
1000
0100
0010
1101
0010
0001
0100
,
1010
0100
0001
0010
1100
0010
0100
1000
0101
0010
0001
1000
0111
1000
0010
0001
,
1010
0100
0010
1000
0101
0010
0001
0100
0011
1000
0001
0100
1011
0100
0001
1000
,
0110
1000
0100
0010
1001
0100
0010
0001
1010
0100
1000
0010
1101
0010
0100
0001
,
1010
0100
0010
0001
1100
0010
1000
0001
0110
1000
0001
0100
1011
0100
0010
1000
,
0101
0010
1000
0100
1010
0100
0010
0001
0110
0001
0010
0001
1110
0001
0100
0010
,
1100
0010
0001
0100
1010
0100
0001
0010
1001
0100
0010
0001
2110
0001
0010
0100
,
0011
0100
0010
0001
0110
0001
0110
0001
0110
0001
0110
0001
3020
0000
0000
0000
,
0000
0000
0000
0000
0000
0000
0000
0000
0000
1031
0100
0010
,
0001
0010
0100
1000
0100
0010
0001
0010
0100
1000
0100
0010
,
0001
0000
0000
0000
0000
0000
0000
0000
0000
0000
0000
0000
0000
0000
0000
0000
0010
0000
0000
0000
0000
0000
0000
0000
0000
0000
0000
0000
0000
0000
0000
0000
0100
0000
0000
0000
0000
0000
0000
0000
0000
0000
0000
0000
0000
0000
0000
0000
1000
0000
0000
0000
0000
0000
0000
0000
0000
0000
0000
0000
0000
0000
0000
0000
0100
0000
0000
0000
0000
0000
0000
0000
0000
0000
0000
0000
0000
0000
0000
0000
0010
0000
0000
0000
0000
0000
0000
0000
0000
0000
0000
0000
0000
0000
0000
0000
0001
0000
0000
0000
0000
0000
0000
0000
0000
0000
0000
0000
0000
0000
0000
0000
0010
0000
0000
0000
0000
0000
0000
0000
0000
0000
0000
0000
0000
0000
0000
0000
0100
0000
0000
0000
0000
0000
0000
0000
0000
0000
0000
0000
0000
0000
0000
0000
0000
0000
0000
0000
0000
0000
2202
0000
0000
0000
0000
0000
0000
0000
0000
0000
0000
0000
0000
0000
0000
0000
0000
0000
0000
0000
0000
0000
0000
0000
0000
0000
0000
0000
0000
0000
0000
0000
0000
0000
0000
0000
0000
0000
0000
0000
0000
0000
,
0000
0000
0000
0000
,
3303
0000
0000
1001
0000
1001
0000
2002
0000
0000
0000
0000
0000
0000
0000
0000
0000
0000
0000
0000
0000
3003
0000
0000
;

//---------------dance-single - ----------------
#NOTES:
     dance-single:
     :
     Medium:
     6:
     0.351,0.368,0.111,0.009,0.000,274.000,13.000,1.000,0.000,0.000:
1000
0000
0100
0000
0010
0001
0010
0000
,
0001
0000
0100
0000
1000
0010
1000
0000
,
0100
0000
1000
0000
0001
0010
0001
0000
,
0100
0000
1000
0000
0001
0010
0001
0000
,
1000
0000
1000
0000
0001
0010
0001
0000
,
1000
0000
1000
0000
0100
0001
0100
0000
,
1000
0100
0010
0001
,
1001
0000
1001
0000
,
1000
0100
0010
0000
0001
0000
0100
0000
,
1000
0100
0010
0001
,
1000
0010
0100
0000
0001
0000
0010
0000
,
0100
1000
0001
0010
,
0100
1000
0100
0000
1100
0000
0000
0000
,
0001
0010
0001
0000
0011
0000
0000
0000
,
1100
0000
1010
0000
,
0100
0000
0101
0000
,
1000
0100
0010
0000
0001
0000
0100
0000
,
0010
0001
0010
0000
0100
1000
0100
0000
,
0100
0010
0001
1000
,
1001
0000
0100
1001
,
0100
0000
0010
0000
0001
0000
1000
0100
,
1000
0001
0001
1000
,
0100
0000
0010
0001
1000
0000
0100
0010
,
0001
0000
0000
0000
,
1000
0100
0010
0001
,
0010
0100
1000
0000
0010
0000
0000
0000
,
0001
1000
0100
0010
,
0001
0000
1000
0100
0010
0000
0000
0000
,
0001
0000
1000
0100
0000
0010
0001
0000
,
1000
0000
0000
0000
0000
0000
0010
0001
,
0010
0000
0100
1000
0000
0000
0010
0000
,
0001
0000
0000
0000
0100
1000
0001
0000
,
0100
1000
0001
0100
,
0010
0000
0100
1000
0100
0000
0010
0000
,
0001
0010
0100
1000
,
0100
0000
0010
0100
0010
0000
0000
0000
,
1000
0001
0010
0100
,
1000
0000
0100
0010
0001
0000
0100
1000
,
0100
0000
0000
0010
0001
0000
0100
0000
,
0100
0000
0000
0000
0000
0100
0000
0000
,
0100
0000
0100
0100
,
0000
0100
0100
1000
,
0001
0100
0000
0100
,
0100
0000
1000
0001
,
0010
0100
1000
0010
,
0100
0000
0200
0000
0000
0000
0000
0300
,
0000
0100
1000
0001
,
0010
0100
1000
0001
,
0010
0000
0100
1000
0100
0000
0010
0000
,
0010
0000
0010
1000
0010
0000
0100
0001
,
0100
0010
1000
0100
,
0010
0001
0010
0100
,
1000
0000
0000
0100
,
0010
0001
0010
0100
,
0000
1000
0000
1000
,
0100
0010
0001
0001
,
0000
0101
0000
0100
,
0000
1000
0100
0010
,
0000
0001
1000
0010
,
0000
0100
0000
0000
0001
0000
0100
0000
,
0000
0000
0010
1000
0100
0000
0001
0000
,
0100
1000
0100
0010
,
0001
0010
0001
0000
1000
0000
0100
0000
,
0010
0010
0100
1000
,
0000
0100
0010
0000
0000
0000
0100
0000
,
1000
0100
0010
0001
,
0000
0010
0100
1000
,
0100
0010
0000
0001
0010
0000
0100
0000
,
0000
0000
0000
1100
,
0000
0000
0000
0000
0000
0000
0000
1100
,
0000
0100
0010
0000
0001
0000
0010
0000
,
0100
1000
0000
0100
0000
0000
1001
0000
;

//---------------dance-single - ----------------
#NOTES:
     dance-single:
     :
     Easy:
     3:
     0.266,0.276,0.145,0.017,0.000,199.000,17.000,2.000,0.000,0.000:
1000
0100
0010
0001
,
0001
0010
0100
1000
,
0100
0000
0010
0000
,
1001
0100
0100
0000
,
1000
0100
0010
0000
,
0001
0010
0200
0300
,
1000
0001
0100
0000
,
0001
1000
0010
0000
,
0100
0010
0001
0010
,
0100
1000
0100
0010
,
0001
0000
0100
0000
,
1000
0100
0100
0000
,
0001
0010
0100
0010
,
0001
0010
0100
1000
,
0100
0000
0010
0000
,
1001
0000
1001
0000
,
1000
0100
0010
0000
,
0001
0010
0100
0000
,
1000
0000
0100
0010
,
0001
0000
0100
1000
,
0100
0000
0010
0001
,
0010
0000
0100
1000
,
0100
0000
0010
0000
,
1001
0000
1001
0000
,
0010
0100
1000
0100
,
0010
0000
0010
0000
,
0001
0010
0100
0010
,
0001
0000
0100
0000
,
1000
0100
0010
0000
,
0001
0010
0200
0300
,
1000
0100
0010
0010
,
0100
0000
1000
0100
,
0010
0000
0010
0100
,
1000
0100
0010
0000
,
0001
0010
0100
0001
,
0010
0000
0100
0000
,
1000
0100
0010
0001
,
0010
0000
0100
1000
,
0100
0000
0010
0000
,
0001
0000
0000
0000
,
1100
0000
0000
0100
,
0000
0000
0100
0000
,
0000
0100
0000
0000
,
0001
0000
0000
0010
,
0010
0010
0100
0100
,
0100
1000
0000
0000
,
0100
0010
0001
0010
,
0100
1000
0100
0010
,
0000
0010
0100
0100
,
1000
0100
0100
0010
,
0100
0100
0001
0010
,
0100
1000
0100
0010
,
0100
0000
0000
0100
,
0000
0100
0000
0001
,
0000
0010
0000
1100
,
0000
0010
0000
0101
,
0000
0101
0000
1010
,
0000
0100
0000
0110
,
0000
0001
0000
0101
,
0000
1010
0000
1100
,
0000
1000
0100
0010
,
0001
0010
0100
0100
,
0000
0001
0000
0100
,
1000
0010
0100
0001
,
0000
0010
0000
0100
,
0000
1000
0000
0100
,
0000
0010
0001
0010
,
0000
0100
1000
0100
,
0000
0000
0000
1001
,
0000
0000
0000
1100
,
0000
0100
0000
0100
,
0000
0100
0000
1001
;

//---------------dance-single - ----------------
#NOTES:
     dance-single:
     :
     Beginner:
     2:
     0.152,0.214,0.162,0.000,0.000,106.000,19.000,0.000,0.000,0.000:
0010
0000
0000
0000
,
1000
0000
0000
0000
,
0100
0000
0000
0000
,
1001
0000
0000
0000
,
0010
0000
0000
0000
,
0001
0000
0000
0000
,
0100
0000
0000
0000
,
1001
0000
1001
0000
,
0100
0000
0000
0000
,
0010
0000
0000
0000
,
1001
0000
0000
0000
,
1001
0000
0000
0000
,
1000
0000
0100
0000
,
0010
0000
0000
0000
,
0001
0000
0100
0000
,
0010
0000
0000
0000
,
1100
0000
0000
0000
,
1100
0000
0000
0000
,
1001
0000
0000
0000
,
0100
0000
0000
0000
,
0010
0010
0010
0000
,
0100
0100
0100
0000
,
1000
0000
0001
0000
,
1001
0000
0000
0000
,
0100
0000
0010
0000
,
0001
0000
0000
0000
,
0001
0000
0010
0000
,
0100
0000
0000
0000
,
1000
0000
0010
0000
,
0100
0000
0000
0000
,
0010
0000
0010
0000
,
0010
0000
1000
0000
,
0100
0000
0000
0000
,
0010
0000
0000
0000
,
0001
0000
0010
0000
,
0100
0000
1000
0000
,
0100
0000
0010
0000
,
0100
0000
0100
0000
,
0100
0000
0100
0000
,
0100
0000
0000
0000
,
1001
0000
0000
1001
,
0000
0000
1001
0000
,
0000
1001
0000
0000
,
1001
0000
0000
0001
,
0000
0000
0100
0000
,
0000
0010
0000
0000
,
1000
0000
0100
0000
,
0010
0000
0100
0000
,
0000
0100
0000
0000
,
0100
0000
0000
1000
,
0000
0000
0010
0000
,
0000
0100
0000
0000
,
0010
0000
0000
0100
,
0000
0000
0000
0100
,
0000
0000
0000
0001
,
0000
0000
0000
0010
,
0000
0000
0000
0100
,
0000
0000
0000
1000
,
0000
0000
0000
0010
,
0000
0000
0000
0100
,
0000
1000
0000
0100
,
0000
0001
0000
0010
,
0000
0100
0000
1000
,
0000
0100
0000
0010
,
0000
0100
0000
0110
,
0000
0100
0000
0110
,
0000
0010
0000
0110
,
0000
1000
0000
1001
,
0000
0000
0000
0100
,
0000
0000
0000
0100
,
0000
0100
0000
0100
,
0000
0100
0000
1001
;
